Skip to main content

Dawes Live at Memorial Union Terrace - UW Madison on 2010-07-03

Audio Preview

etree
Dawes Live at Memorial Union Terrace - UW Madison on 2010-07-03

by Dawes



01. intro
02. How Far We've Come (&)
03. Bedside Manner
04. My Girl To Me
05. Love is All I Am
06. Fire Away
07. Bedside Manner
08. Jonny Corndawg intro
09. A Ford Man Turns To Chevy (+)
10. When You Call My Name
11. When My Time Comes
12. banter - Patrick's merch pitch
13. Peace In The Valley (&)

(&) = with Patrick - tenor sax
(+) = with Jonny Corndawg - lead vocals


Collection Dawes
Band/Artist Dawes
Venue Memorial Union Terrace - UW Madison
Location Madison WI USA

Source Neumann KM140's (ORTF with windscreens on stand, right side, back of main floor) > Beyer MV100 > M-Audio Microtrack II > WAV @24-bit/48kHz + Soundcraft Spirit 8 SBD > Zoom H2 > WAV @24-bit/48kHz
Lineage WAVs > Powermac G4 > MOTU Digital Performer 4 (align & mix @24/48, convert & dither to 16/441) > WAV > Audacity 1.3.12 (tracking) > WAV > xACT 1.72 > FLAC level 8
Taped by morst
Transferred by morst

Notes

***24-bit version - NOT for CD burning***

Dawes & Justin Townes Earle performed after the simulcast of Rhythm & Booms ' radio program on WOLX-FM, which was sync'd with the Warner Park fireworks display across the lake.

FoH Audio (Intellisound): Scott Steger

Notes:
Audience recording had a late start, listen for it fade in during the start of t03.

SHNTOOL:
length expanded size cdr WAVE problems fmt ratio filename
0:27.507 7921964 B cxx -- ---xx Dawes2010-07-03-2448t01.flac
3:01.920 52393004 B cxx -- ---xx Dawes2010-07-03-2448t02.flac
4:08.120 71458604 B cxx -- ---xx Dawes2010-07-03-2448t03.flac
5:15.800 90950444 B cxx -- ---xx Dawes2010-07-03-2448t04.flac
5:44.520 99221804 B cxx -- ---xx Dawes2010-07-03-2448t05.flac
7:02.440 121662764 B cxx -- ---xx Dawes2010-07-03-2448t06.flac
5:59.600 103564844 B cxx -- ---xx Dawes2010-07-03-2448t07.flac
0:39.787 11458604 B cxx -- ---xx Dawes2010-07-03-2448t08.flac
2:35.480 44778284 B cxx -- ---xx Dawes2010-07-03-2448t09.flac
4:25.920 76585004 B cxx -- ---xx Dawes2010-07-03-2448t10.flac
5:02.693 87175724 B cxx -- ---xx Dawes2010-07-03-2448t11.flac
1:10.440 20286764 B cxx -- ---xx Dawes2010-07-03-2448t12.flac
8:44.657 151101146 B cxx -- ---xx Dawes2010-07-03-2448t13.flac
54:18.883 938558954 B 0.7143 (13 files)

-~-~-~-~-~-~-~-~-~-~-~-~-~-~-~-~-~-~-~-~-~-~-~-~-~-
The Soundscape Preservation Society (Founded 1991)
http://www.iamtypingwithonefinger.com/SPS.html
-~-~-~-~-~-~-~-~-~-~-~-~-~-~-~-~-~-~-~-~-~-~-~-~-~-

comment
Reviews

There are no reviews yet. Be the first one to write a review.
DOWNLOAD OPTIONS
In Collection
Dawes
In Collection
Live Music Archive
Uploaded by
morst
on 10/4/2010
Views
364
Favorites
1
SIMILAR ITEMS (based on metadata)
eye
Title
Date Archived
Creator
Dawes
etree
eye 1,257
favorite 1
comment 0
Source: Neumann KM140's (ORTF with windscreens on stand, right side, back of main floor) > Beyer MV100 > M-Audio Microtrack II > WAV @24-bit/48kHz + Soundcraft Spirit 8 SBD > Zoom H2 > WAV @24-bit/48kHz
Dawes
etree
eye 346
favorite 0
comment 0
Source: Mackie SBD tape outs > Sony PCM-M1 > DAT @16/48 Neumann KM140's > Beyer MV100 > M-Audio Microtrack II > WAV @24/48
Dawes
etree
eye 2,893
favorite 3
comment 1
favoritefavoritefavoritefavoritefavorite ( 1 reviews )
Source: Mackie SBD tape outs > Sony PCM-M1 > DAT @16/48 Neumann KM140's > Beyer MV100 > M-Audio Microtrack II > WAV @24/48
Dawes
by Dawes
etree
eye 728
favorite 1
comment 0
Source: [SBD] + [AK40 (ORTF, ~7' high @ SBD) > LC3 > KM100 > Aerco MP-2] >> R-44 (Oade CM) >> WAV @ 24bit/44.1KHz
Dawes
by Dawes
etree
eye 677
favorite 1
comment 0
Source: Mackie SBD > Sony PCM-M1 > DAT + Neumann KM140’s > MV100 > -11dB attenuator cable > H2 (mic pads set at -10dB) > WAV @24-bit/48kHz (ORTF on stand, rt of center, 9' high)
Dawes
by Dawes
etree
eye 535
favorite 1
comment 0
Source: Allen & Heath GL3300 SBD > Sony PCM-M1 > DAT + Neumann KM140’s > MV100 > -11dB attenuator cable > H2 (mic pads set at -10dB) > WAV @24-bit/48kHz (clamped on ctr post, ~8' high)
Cracker
by Cracker
etree
eye 296
favorite 1
comment 1
favoritefavoritefavoritefavorite ( 1 reviews )
Source: SBD + Audience post-matrix
Jason Boesel
by Jason Boesel
etree
eye 953
favorite 1
comment 0
Source: SBD + Audience 4-channel post-production matrix mix
Those Darlins
by Those Darlins
etree
eye 452
favorite 1
comment 0
Source: SBD + Audience post-matrix: Neumann KM140's ORTF with umbrella, on stand slightly FoB, right side > Beyer MV100 > M-Audio Microtrack II > WAV @24-bit/48kHz + Midas Heritage 1000 SBD > Zoom H2 > WAV @24-bit/48kHz
Cracker
by Cracker
etree
eye 132
favorite 1
comment 0
Source: Soundcraft K2 SBD mono out + Neumann KM140's > Grace V3 > Edirol R44 > WAV @24/48